Jump to content

The Expendables Trilogy - BluRay's - 2160p 4K - HDR - HEVC - 10Bits - MULTI ORIGINAL AUDIOS [DD5.1] (Telugu+Tamil+Hindi+English) - x265 - AC3 - 10GB - ESub


tomy100
 Share

Recommended Posts

81Ee-wdReKL._SL1500_.jpg

WE ARE NOW AVAILABLE ON TELEGRAM - JOIN OUR Group

 

1.webp2.webp3.webp4.webp6.webp7.webp8.webp10.webp

 

 

 

black.gif

 

google-drive.jpg

 

The Expendables (2010) HDR BluRay - 4K 2160p - HEVC - Multi Original Audios [ English + Telugu + Tamil + Hindi (DD5.1)] - AC3 - ESubs - [[T∆M¥]].mkv

 

The Expendables (2010) HDR BluRay - 4K 2160p - HEVC - Multi Original Audios [ English + Telugu + Tamil + Hindi (DD5.1)] - AC3 - ESubs - [[T∆M¥]].mkv

 

The Expendables 2 (2012) 2160p HDR BluRay - 4K 2160p - HEVC - Multi Original Audios [ English + Telugu + Tamil + Hindi (DD5.1)] - AC3 - ESubs - [[T∆M¥]].mkv

The Expendables 2 (2012) 2160p HDR BluRay - 4K 2160p - HEVC - Multi Original Audios [ English + Telugu + Tamil + Hindi (DD5.1)] - AC3 - ESubs - [[T∆M¥]].mkv

 

The Expendables 3 (2014) HDR BluRay - 4K 2160p - HEVC - Multi Original Audios [ English + Telugu + Tamil + Hindi (DD5.1)] - AC3 - ESub - [[T∆M¥]].mkv

The Expendables 3 (2014) HDR BluRay - 4K 2160p - HEVC - Multi Original Audios [ English + Telugu + Tamil + Hindi (DD5.1)] - AC3 - ESub - [[T∆M¥]].mkv

 

 

black.gif

 

 

Media InfoRmaTioN

 

General

Complete name : The Expendables (2010) HDR BluRay - 4K 2160p - HEVC - Multi Original Audios [ English + Telugu + Tamil + Hindi (DD5.1)] - AC3 - ESubs - [[T∆M¥]].mkv

Format : Matroska

Format version : Version 4

File size : 3.37 GiB

Duration : 1 h 43 min

Overall bit rate : 4 667 kb/s

Movie name : BY © Encoder - ® [[T∆M¥]] - Expendables (2010) 

Writing application : mkvedit android v1.6

Writing library : libmkv arm64-v8a v1.6 / Lavf58.20.100

Attachments : [[T∆M¥]].jpg

 

Video

ID : 1

Format : HEVC

Format/Info : High Efficiency Video Coding

Format profile : Main 10

Format level : 5

Format tier : High

Codec ID : V_MPEGH/ISO/HEVC

Duration : 1 h 43 min

Bit rate : 3 774 kb/s

Width : 3 840 pixels

Height : 1 600 pixels

Display aspect ratio : 2.40:1

Frame rate mode : Constant

Frame rate : 23.976 FPS

Color space : YUV

Chroma subsampling : 4:2:0

Bit depth : 10 bits

Bits/(Pixel*Frame) : 0.026

Stream size : 2.73 GiB (81%)

Title : BY © Encoder - ® [[T∆M¥]] - Expendables 

Language : English

Default : Yes

Forced : No

Color range : Full

Color primaries : BT.2020

Transfer characteristics : PQ

Matrix coefficients : BT.2020 non-constant

 

Audio #1

ID : 2

Format : AC-3

Format/Info : Audio Coding 3

Commercial name : Dolby Digital

Format settings : Big

Codec ID : A_AC3

Duration : 1 h 43 min

Bit rate mode : Constant

Bit rate : 320 kb/s

Channel(s) : 6 channels

Channel layout : L R C LFE Ls Rs

Sampling rate : 48.0 kHz

Frame rate : 31.250 FPS (1536 SPF)

Compression mode : Lossy

Delay relative to video : 27 ms

Stream size : 237 MiB (7%)

Title : BY © Encoder - ® [[T∆M¥]] - English 

Language : English

Default : Yes

Forced : No

 

Audio #2

ID : 3

Format : AC-3

Format/Info : Audio Coding 3

Commercial name : Dolby Digital

Format settings : Big

Codec ID : A_AC3

Duration : 1 h 43 min

Bit rate mode : Constant

Bit rate : 160 kb/s

Channel(s) : 6 channels

Channel layout : L R C LFE Ls Rs

Sampling rate : 48.0 kHz

Frame rate : 31.250 FPS (1536 SPF)

Compression mode : Lossy

Delay relative to video : -5 ms

Stream size : 118 MiB (3%)

Title : BY © Encoder - ® [[T∆M¥]] - Telugu

Language : Telugu

Default : Yes

Forced : No

 

Audio #3

ID : 4

Format : AC-3

Format/Info : Audio Coding 3

Commercial name : Dolby Digital

Format settings : Big

Codec ID : A_AC3

Duration : 1 h 43 min

Bit rate mode : Constant

Bit rate : 160 kb/s

Channel(s) : 6 channels

Channel layout : L R C LFE Ls Rs

Sampling rate : 48.0 kHz

Frame rate : 31.250 FPS (1536 SPF)

Compression mode : Lossy

Delay relative to video : -5 ms

Stream size : 118 MiB (3%)

Title : BY © Encoder - ® [[T∆M¥]] - Tamil

Language : Tamil

Default : Yes

Forced : No

 

Audio #4

ID : 5

Format : AC-3

Format/Info : Audio Coding 3

Commercial name : Dolby Digital

Format settings : Big

Codec ID : A_AC3

Duration : 1 h 43 min

Bit rate mode : Constant

Bit rate : 160 kb/s

Channel(s) : 6 channels

Channel layout : L R C LFE Ls Rs

Sampling rate : 48.0 kHz

Frame rate : 31.250 FPS (1536 SPF)

Compression mode : Lossy

Delay relative to video : -5 ms

Stream size : 118 MiB (3%)

Title : BY © Encoder - ® [[T∆M¥]] - Hindi

Language : Hindi

Default : Yes

Forced : No

 

Text #1

ID : 6

Format : PGS

Codec ID : S_HDMV/PGS

Duration : 1 h 34 min

Title : BY © Encoder - ® [[T∆M¥]] - English 

Language : English

Default : No

Forced : No

 

Text #2

ID : 7

Format : PGS

Codec ID : S_HDMV/PGS

Duration : 1 h 34 min

Title : BY © Encoder - ® [[T∆M¥]] - English 

Language : English

Default : No

Forced : No

 

General

Complete name : The Expendables 2 (2012) 2160p HDR BluRay - 4K 2160p - HEVC - Multi Original Audios [ English + Telugu + Tamil + Hindi (DD5.1)] - AC3 - ESubs - [[T∆M¥]].mkv

Format : Matroska

Format version : Version 4

File size : 3.40 GiB

Duration : 1 h 42 min

Overall bit rate : 4 744 kb/s

Movie name : BY © Encoder - ® [[T∆M¥]] - Expendables 2 (2012)

Writing application : mkvedit android v1.6

Writing library : libmkv arm64-v8a v1.6 / Lavf58.20.100

Attachments : [[T∆M¥]].jpg

 

Video

ID : 1

Format : HEVC

Format/Info : High Efficiency Video Coding

Format profile : Main 10

Format level : 5

Format tier : High

Codec ID : V_MPEGH/ISO/HEVC

Duration : 1 h 42 min

Bit rate : 3 753 kb/s

Width : 3 840 pixels

Height : 1 600 pixels

Display aspect ratio : 2.40:1

Frame rate mode : Constant

Frame rate : 23.976 FPS

Color space : YUV

Chroma subsampling : 4:2:0

Bit depth : 10 bits

Bits/(Pixel*Frame) : 0.025

Stream size : 2.69 GiB (79%)

Title : BY © Encoder - ® [[T∆M¥]] - Expendables 2 (2012)

Language : English

Default : Yes

Forced : No

Color range : Full

Color primaries : BT.2020

Transfer characteristics : PQ

Matrix coefficients : BT.2020 non-constant

 

Audio #1

ID : 2

Format : AC-3

Format/Info : Audio Coding 3

Commercial name : Dolby Digital

Format settings : Big

Codec ID : A_AC3

Duration : 1 h 42 min

Bit rate mode : Constant

Bit rate : 320 kb/s

Channel(s) : 6 channels

Channel layout : L R C LFE Ls Rs

Sampling rate : 48.0 kHz

Frame rate : 31.250 FPS (1536 SPF)

Compression mode : Lossy

Delay relative to video : 27 ms

Stream size : 235 MiB (7%)

Title : BY © Encoder - ® [[T∆M¥]] - English 

Language : English

Default : Yes

Forced : No

 

Audio #2

ID : 3

Format : AC-3

Format/Info : Audio Coding 3

Commercial name : Dolby Digital

Format settings : Big

Codec ID : A_AC3

Duration : 1 h 42 min

Bit rate mode : Constant

Bit rate : 192 kb/s

Channel(s) : 2 channels

Channel layout : L R

Sampling rate : 48.0 kHz

Frame rate : 31.250 FPS (1536 SPF)

Compression mode : Lossy

Delay relative to video : -5 ms

Stream size : 141 MiB (4%)

Title : BY © Encoder - ® [[T∆M¥]] - Telugu 

Language : Telugu

Default : Yes

Forced : No

 

Audio #3

ID : 4

Format : AC-3

Format/Info : Audio Coding 3

Commercial name : Dolby Digital

Format settings : Big

Codec ID : A_AC3

Duration : 1 h 42 min

Bit rate mode : Constant

Bit rate : 192 kb/s

Channel(s) : 2 channels

Channel layout : L R

Sampling rate : 48.0 kHz

Frame rate : 31.250 FPS (1536 SPF)

Compression mode : Lossy

Delay relative to video : -5 ms

Stream size : 141 MiB (4%)

Title : BY © Encoder - ® [[T∆M¥]] - Tamil 

Language : Tamil

Default : Yes

Forced : No

 

Audio #4

ID : 5

Format : AC-3

Format/Info : Audio Coding 3

Commercial name : Dolby Digital

Format settings : Big

Codec ID : A_AC3

Duration : 1 h 42 min

Bit rate mode : Constant

Bit rate : 192 kb/s

Channel(s) : 2 channels

Channel layout : L R

Sampling rate : 48.0 kHz

Frame rate : 31.250 FPS (1536 SPF)

Compression mode : Lossy

Delay relative to video : -5 ms

Stream size : 141 MiB (4%)

Title : BY © Encoder - ® [[T∆M¥]] - Hindi 

Language : Hindi

Default : Yes

Forced : No

 

Text #1

ID : 6

Format : PGS

Codec ID : S_HDMV/PGS

Duration : 1 h 32 min

Title : BY © Encoder - ® [[T∆M¥]] - English 

Language : English

Default : No

Forced : No

 

Text #2

ID : 7

Format : PGS

Codec ID : S_HDMV/PGS

Duration : 1 h 32 min

Title : BY © Encoder - ® [[T∆M¥]] - English 

Language : English

Default : No

Forced : No

 

 

General

Complete name : The Expendables 3 (2014) HDR BluRay - 4K 2160p - HEVC - Multi Original Audios [ English + Telugu + Tamil + Hindi (DD5.1)] - AC3 - ESub - [[T∆M¥]].mkv

Format : Matroska

Format version : Version 4

File size : 3.85 GiB

Duration : 2 h 6 min

Overall bit rate : 4 366 kb/s

Movie name : BY © Encoder - ® [[T∆M¥]] 

Writing application : mkvedit android v1.6

Writing library : libmkv arm64-v8a v1.6 / Lavf59.10.100

Attachments : [[T∆M¥]].jpg

 

Video

ID : 1

Format : HEVC

Format/Info : High Efficiency Video Coding

Format profile : Main 10

Format level : 5

Format tier : High

Codec ID : V_MPEGH/ISO/HEVC

Duration : 2 h 6 min

Bit rate : 3 479 kb/s

Width : 3 840 pixels

Height : 1 600 pixels

Display aspect ratio : 2.40:1

Frame rate mode : Constant

Frame rate : 23.976 FPS

Color space : YUV

Chroma subsampling : 4:2:0

Bit depth : 10 bits

Bits/(Pixel*Frame) : 0.024

Stream size : 3.07 GiB (80%)

Title : BY © Encoder - ® [[T∆M¥]] 

Language : English

Default : Yes

Forced : No

Color range : Full

Color primaries : BT.2020

Transfer characteristics : PQ

Matrix coefficients : BT.2020 non-constant

 

Audio #1

ID : 3

Format : AC-3

Format/Info : Audio Coding 3

Commercial name : Dolby Digital

Format settings : Big

Codec ID : A_AC3

Duration : 2 h 6 min

Bit rate mode : Constant

Bit rate : 320 kb/s

Channel(s) : 6 channels

Channel layout : L R C LFE Ls Rs

Sampling rate : 48.0 kHz

Frame rate : 31.250 FPS (1536 SPF)

Bit depth : 32 bits

Compression mode : Lossy

Delay relative to video : 27 ms

Stream size : 289 MiB (7%)

Title : BY © Encoder - ® [[T∆M¥]] - English 

Language : English

Default : Yes

Forced : No

 

Audio #2

ID : 4

Format : AC-3

Format/Info : Audio Coding 3

Commercial name : Dolby Digital

Format settings : Big

Codec ID : A_AC3

Duration : 2 h 6 min

Bit rate mode : Constant

Bit rate : 160 kb/s

Channel(s) : 6 channels

Channel layout : L R C LFE Ls Rs

Sampling rate : 48.0 kHz

Frame rate : 31.250 FPS (1536 SPF)

Bit depth : 32 bits

Compression mode : Lossy

Delay relative to video : 27 ms

Stream size : 145 MiB (4%)

Title : Telugu - BY © Encoder - ® [[T∆M¥]] 

Language : Telugu

Default : No

Forced : No

 

Audio #3

ID : 5

Format : AC-3

Format/Info : Audio Coding 3

Commercial name : Dolby Digital

Format settings : Big

Codec ID : A_AC3

Duration : 2 h 6 min

Bit rate mode : Constant

Bit rate : 160 kb/s

Channel(s) : 6 channels

Channel layout : L R C LFE Ls Rs

Sampling rate : 48.0 kHz

Frame rate : 31.250 FPS (1536 SPF)

Bit depth : 32 bits

Compression mode : Lossy

Delay relative to video : 27 ms

Stream size : 145 MiB (4%)

Title : Tamil - BY © Encoder - ® [[T∆M¥]] -

Language : Tamil

Default : No

Forced : No

 

Audio #4

ID : 6

Format : AC-3

Format/Info : Audio Coding 3

Commercial name : Dolby Digital

Format settings : Big

Codec ID : A_AC3

Duration : 2 h 6 min

Bit rate mode : Constant

Bit rate : 160 kb/s

Channel(s) : 6 channels

Channel layout : L R C LFE Ls Rs

Sampling rate : 48.0 kHz

Frame rate : 31.250 FPS (1536 SPF)

Bit depth : 32 bits

Compression mode : Lossy

Delay relative to video : 27 ms

Stream size : 145 MiB (4%)

Title : Hindi - BY © Encoder - ® [[T∆M¥]] 

Language : Hindi

Default : No

Forced : No

 

Text

ID : 2

Format : UTF-8

Codec ID : S_TEXT/UTF8

Duration : 1 h 56 min

Title : English - BY © Encoder - ® [[T∆M¥]] 

Language : English

Default : No

Forced : No


 

Link to comment
Share on other sites

Guest
Reply to this topic...

×   Pasted as rich text.   Paste as plain text instead

  Only 75 emoji are allowed.

×   Your link has been automatically embedded.   Display as a link instead

×   Your previous content has been restored.   Clear editor

×   You cannot paste images directly. Upload or insert images from URL.

 Share

×
×
  • Create New...